<svg xmlns="http://www.w3.org/2000/svg">
<defs>
<font
       id="EmbeddedFont_1"
       horiz-adv-x="2048"
       horiz-origin-x="0"
       horiz-origin-y="0"
       vert-origin-x="45"
       vert-origin-y="90"
       vert-adv-y="90">
      <font-face
         font-family="Arial embedded"
         units-per-em="2048"
         ascent="1852"
         descent="450"
         id="font-face7" />
      <missing-glyph
         horiz-adv-x="2048"
         id="missing-glyph9">
        <path
           style="fill:none;stroke:black;stroke-width:33"
           d="M 0,2048 L 2047,2048 2047,1 0,1 0,2048 Z"
           id="path11" />
      </missing-glyph>
      <glyph
         unicode="®"
         horiz-adv-x="1483"
         id="glyph13">
        <path
           d="M 758,1491 C 885,1491 1008,1459 1129,1394 1250,1329 1344,1236 1411,1115 1478,994 1512,867 1512,736 1512,606 1479,481 1413,361 1346,241 1253,148 1134,82 1014,15 889,-17 758,-18 627,-17 502,15 383,82 263,148 170,241 103,361 36,481 3,606 3,736 3,867 37,994 105,1115 172,1236 266,1329 387,1394 508,1459 631,1491 758,1491 Z M 758,1366 C 652,1366 549,1339 449,1285 348,1230 270,1153 213,1052 156,951 128,845 128,736 128,627 156,523 212,424 267,324 345,246 445,191 545,135 649,107 758,107 867,107 971,135 1071,191 1171,246 1249,324 1304,424 1359,523 1387,627 1387,736 1387,845 1359,951 1303,1052 1246,1153 1168,1230 1067,1285 966,1339 863,1366 758,1366 Z M 427,319 L 427,1131 706,1131 C 801,1131 870,1124 913,1109 956,1094 990,1067 1015,1030 1040,993 1053,953 1053,911 1053,852 1032,800 990,756 947,712 891,687 821,682 850,670 873,656 890,639 923,607 963,553 1010,478 L 1109,319 949,319 877,447 C 820,548 775,611 740,636 716,655 681,664 635,664 L 558,664 558,319 427,319 Z M 558,776 L 717,776 C 793,776 845,787 873,810 900,833 914,863 914,900 914,924 907,946 894,965 881,984 862,998 839,1007 815,1016 771,1021 707,1021 L 558,1021 558,776 Z"
           id="path15" />
      </glyph>
    </font>
    <desc
       id="desc179">Master slide</desc>
    <desc
       id="desc186">Slide</desc>
    <desc
       id="desc190">Group</desc>
    <desc
       id="desc194">Group</desc>
    <desc
       id="desc570">Drawing</desc>
    <desc
       id="desc558">Drawing</desc>
    <desc
       id="desc546">Drawing</desc>
    <desc
       id="desc534">Drawing</desc>
    <desc
       id="desc606">Drawing</desc>
    <desc
       id="desc690">Drawing</desc>
    <desc
       id="desc582">Drawing</desc>
    <desc
       id="desc678">Drawing</desc>
    <desc
       id="desc594">Drawing</desc>
    <desc
       id="desc618">Drawing</desc>
    <desc
       id="desc710">Drawing</desc>
    <desc
       id="desc630">Drawing</desc>
    <desc
       id="desc642">Drawing</desc>
    <desc
       id="desc722">Drawing</desc>
    <desc
       id="desc666">Drawing</desc>
    <desc
       id="desc654">Drawing</desc>
    <desc
       id="desc734">Drawing</desc>
    <desc
       id="desc246">Drawing</desc>
    <desc
       id="desc462">Drawing</desc>
    <desc
       id="desc342">Drawing</desc>
    <desc
       id="desc450">Drawing</desc>
  </defs>
  <defs
     id="defs17">
    <font
       id="EmbeddedFont_2"
       horiz-adv-x="2048"
       horiz-origin-x="0"
       horiz-origin-y="0"
       vert-origin-x="45"
       vert-origin-y="90"
       vert-adv-y="90">
      <font-face
         font-family="Times New Roman embedded"
         units-per-em="2048"
         ascent="1826"
         descent="503"
         id="font-face20" />
      <missing-glyph
         horiz-adv-x="2048"
         id="missing-glyph22">
        <path
           style="fill:none;stroke:black;stroke-width:33"
           d="M 0,2048 L 2047,2048 2047,1 0,1 0,2048 Z"
           id="path24" />
      </missing-glyph>
      <glyph
         unicode=" "
         horiz-adv-x="1005"
         id="glyph26">
        <path
           d=""
           id="path28" />
      </glyph>
      <glyph
         unicode=","
         horiz-adv-x="265"
         id="glyph30">
        <path
           d="M 110,-341 L 110,-297 C 179,-273 232,-238 270,-191 307,-143 326,-92 326,-40 326,-26 323,-16 317,-8 312,-1 308,1 303,1 296,1 280,-5 255,-19 243,-24 230,-27 217,-28 184,-27 158,-17 139,1 120,20 110,47 110,81 110,114 123,142 148,165 173,188 203,200 239,200 283,200 322,181 357,143 391,104 408,53 408,-10 408,-78 384,-141 337,-201 289,-259 213,-306 110,-341 Z"
           id="path32" />
      </glyph>
      <glyph
         unicode="1"
         horiz-adv-x="504"
         id="glyph34">
        <path
           d="M 240,1223 L 570,1384 603,1384 603,239 C 603,163 606,116 613,97 619,78 632,64 652,54 672,44 713,38 774,37 L 774,0 264,0 264,37 C 328,38 369,44 388,54 407,63 420,76 427,93 434,109 438,158 438,239 L 438,971 C 438,1070 435,1133 428,1161 423,1182 415,1198 403,1208 390,1218 375,1223 358,1223 333,1223 299,1213 255,1192 L 240,1223 Z"
           id="path36" />
      </glyph>
      <glyph
         unicode="A"
         horiz-adv-x="1430"
         id="glyph38">
        <path
           d="M 937,454 L 412,454 320,240 C 297,187 286,148 286,122 286,101 296,83 316,68 335,52 378,42 443,37 L 443,0 16,0 16,37 C 73,47 109,60 126,76 160,108 198,173 239,271 L 716,1387 751,1387 1223,259 C 1261,168 1296,110 1327,83 1358,56 1401,40 1456,37 L 1456,0 921,0 921,37 C 975,40 1012,49 1031,64 1050,79 1059,98 1059,120 1059,149 1046,196 1019,259 L 937,454 Z M 909,528 L 679,1076 443,528 909,528 Z"
           id="path40" />
      </glyph>
      <glyph
         unicode="D"
         horiz-adv-x="1351"
         id="glyph42">
        <path
           d="M 35,0 L 35,37 86,37 C 143,37 184,55 208,92 223,114 230,163 230,240 L 230,1116 C 230,1201 221,1254 202,1275 176,1304 137,1319 86,1319 L 35,1319 35,1356 587,1356 C 790,1356 944,1333 1050,1287 1155,1241 1240,1164 1305,1057 1369,950 1401,826 1401,685 1401,496 1344,339 1229,212 1100,71 904,0 641,0 L 35,0 Z M 422,98 C 507,79 578,70 635,70 790,70 918,124 1020,233 1122,342 1173,489 1173,675 1173,862 1122,1010 1020,1118 918,1226 787,1280 627,1280 567,1280 499,1270 422,1251 L 422,98 Z"
           id="path44" />
      </glyph>
      <glyph
         unicode="F"
         horiz-adv-x="980"
         id="glyph46">
        <path
           d="M 419,1282 L 419,749 666,749 C 723,749 764,762 791,787 817,812 834,861 843,935 L 880,935 880,476 843,476 C 842,529 836,567 823,592 810,617 792,635 769,648 746,660 711,666 666,666 L 419,666 419,240 C 419,171 423,126 432,104 439,87 453,73 474,61 503,45 534,37 566,37 L 615,37 615,0 33,0 33,37 81,37 C 137,37 178,53 203,86 219,107 227,159 227,240 L 227,1116 C 227,1185 223,1230 214,1252 207,1269 194,1283 173,1295 144,1311 114,1319 81,1319 L 33,1319 33,1356 1042,1356 1055,1058 1020,1058 C 1003,1121 983,1168 960,1198 937,1227 908,1249 875,1262 841,1275 789,1282 718,1282 L 419,1282 Z"
           id="path48" />
      </glyph>
      <glyph
         unicode="G"
         horiz-adv-x="1351"
         id="glyph50">
        <path
           d="M 1257,1387 L 1292,959 1257,959 C 1222,1066 1176,1146 1120,1200 1039,1278 936,1317 809,1317 636,1317 505,1249 415,1112 340,997 302,859 302,700 302,571 327,453 377,346 427,239 493,161 574,112 655,62 738,37 823,37 873,37 921,43 968,56 1015,69 1060,87 1103,112 L 1103,504 C 1103,572 1098,617 1088,638 1077,659 1061,675 1040,686 1018,697 980,702 925,702 L 925,740 1450,740 1450,702 1425,702 C 1373,702 1337,685 1318,650 1305,625 1298,577 1298,504 L 1298,89 C 1221,48 1146,18 1071,-1 996,-20 913,-30 822,-31 560,-30 361,53 225,221 123,347 72,492 72,657 72,776 101,891 158,1000 226,1130 319,1230 438,1300 537,1358 655,1387 790,1387 839,1387 884,1383 925,1375 965,1367 1022,1349 1096,1322 1133,1308 1158,1301 1171,1301 1184,1301 1195,1307 1204,1319 1213,1330 1218,1353 1220,1387 L 1257,1387 Z"
           id="path52" />
      </glyph>
      <glyph
         unicode="K"
         horiz-adv-x="1404"
         id="glyph54">
        <path
           d="M 612,752 L 1112,255 C 1194,173 1264,117 1322,88 1380,58 1438,41 1496,37 L 1496,0 851,0 851,37 C 890,37 918,44 935,57 952,70 960,84 960,100 960,116 957,130 951,143 944,156 923,179 888,214 L 420,677 420,240 C 420,171 424,126 433,104 440,87 454,73 475,61 504,45 534,37 566,37 L 612,37 612,0 34,0 34,37 82,37 C 138,37 179,53 204,86 220,107 228,159 228,240 L 228,1116 C 228,1185 224,1230 215,1253 208,1269 195,1283 174,1295 145,1311 114,1319 82,1319 L 34,1319 34,1356 612,1356 612,1319 566,1319 C 535,1319 504,1311 475,1296 454,1285 440,1269 432,1248 424,1227 420,1183 420,1116 L 420,701 C 433,714 479,756 557,828 755,1009 875,1130 916,1191 934,1218 943,1241 943,1261 943,1276 936,1290 922,1302 908,1313 884,1319 851,1319 L 820,1319 820,1356 1318,1356 1318,1319 C 1289,1318 1262,1314 1238,1307 1214,1300 1185,1286 1150,1265 1115,1244 1073,1210 1022,1163 1007,1150 940,1081 819,958 L 612,752 Z"
           id="path56" />
      </glyph>
      <glyph
         unicode="N"
         horiz-adv-x="1456"
         id="glyph58">
        <path
           d="M -27,1356 L 341,1356 1170,339 1170,1121 C 1170,1204 1161,1256 1142,1277 1117,1305 1078,1319 1025,1319 L 978,1319 978,1356 1450,1356 1450,1319 1402,1319 C 1345,1319 1304,1302 1280,1267 1265,1246 1258,1197 1258,1121 L 1258,-22 1222,-22 328,1070 328,235 C 328,152 337,100 355,79 380,51 419,37 472,37 L 520,37 520,0 48,0 48,37 95,37 C 153,37 194,54 218,89 233,110 240,159 240,235 L 240,1178 C 201,1224 171,1254 151,1269 130,1284 100,1297 61,1310 42,1316 12,1319 -27,1319 L -27,1356 Z"
           id="path60" />
      </glyph>
      <glyph
         unicode="S"
         horiz-adv-x="874"
         id="glyph62">
        <path
           d="M 939,1387 L 939,918 902,918 C 890,1008 869,1080 838,1133 807,1186 762,1229 705,1260 648,1291 588,1307 527,1307 458,1307 400,1286 355,1244 310,1201 287,1153 287,1099 287,1058 301,1020 330,986 371,936 470,869 625,786 752,718 838,666 885,630 931,593 967,550 992,501 1017,452 1029,400 1029,346 1029,243 989,155 910,81 830,6 727,-30 602,-31 563,-30 526,-27 491,-22 470,-18 428,-5 363,15 298,36 256,46 239,46 222,46 209,41 200,31 190,21 183,0 178,-31 L 141,-31 141,434 178,434 C 195,337 219,264 248,216 277,167 322,127 383,95 443,63 509,47 581,47 664,47 730,69 779,113 827,157 851,209 851,269 851,302 842,336 824,370 805,404 777,436 738,465 712,485 641,528 525,593 409,658 327,709 278,748 229,787 191,829 166,876 141,923 128,974 128,1030 128,1127 165,1211 240,1282 315,1352 410,1387 525,1387 597,1387 673,1369 754,1334 791,1317 818,1309 833,1309 850,1309 865,1314 876,1325 887,1335 895,1356 902,1387 L 939,1387 Z"
           id="path64" />
      </glyph>
      <glyph
         unicode="T"
         horiz-adv-x="1139"
         id="glyph66">
        <path
           d="M 1185,1356 L 1200,1038 1162,1038 C 1155,1094 1145,1134 1132,1158 1111,1197 1084,1225 1050,1244 1015,1262 970,1271 914,1271 L 723,1271 723,235 C 723,152 732,100 750,79 775,51 814,37 867,37 L 914,37 914,0 339,0 339,37 387,37 C 444,37 485,54 509,89 524,110 531,159 531,235 L 531,1271 368,1271 C 305,1271 260,1266 233,1257 198,1244 169,1220 144,1184 119,1148 105,1099 100,1038 L 62,1038 78,1356 1185,1356 Z"
           id="path68" />
      </glyph>
      <glyph
         unicode="V"
         horiz-adv-x="1377"
         id="glyph70">
        <path
           d="M 1454,1356 L 1454,1319 C 1406,1310 1370,1295 1345,1273 1310,1240 1278,1190 1251,1123 L 778,-31 741,-31 233,1138 C 207,1198 189,1235 178,1248 161,1269 141,1285 117,1297 92,1308 59,1316 18,1319 L 18,1356 572,1356 572,1319 C 509,1313 469,1302 450,1287 431,1272 422,1252 422,1228 422,1195 437,1143 468,1072 L 813,277 1133,1062 C 1164,1139 1180,1193 1180,1223 1180,1242 1170,1261 1151,1279 1132,1296 1099,1309 1053,1316 1050,1317 1044,1318 1036,1319 L 1036,1356 1454,1356 Z"
           id="path72" />
      </glyph>
      <glyph
         unicode="Z"
         horiz-adv-x="1139"
         id="glyph74">
        <path
           d="M 1178,1356 L 287,82 843,82 C 928,82 994,101 1040,138 1085,175 1126,251 1161,365 L 1194,359 1130,0 26,0 26,37 896,1275 462,1275 C 390,1275 338,1267 306,1252 273,1236 249,1213 232,1184 215,1154 199,1098 185,1017 L 147,1017 175,1356 1178,1356 Z"
           id="path76" />
      </glyph>
      <glyph
         unicode="a"
         horiz-adv-x="822"
         id="glyph78">
        <path
           d="M 583,132 C 489,59 430,17 406,6 370,-10 332,-18 291,-19 228,-18 176,3 135,46 94,89 73,146 73,217 73,262 83,300 103,333 130,378 178,421 246,461 313,501 426,550 583,607 L 583,643 C 583,734 569,797 540,831 511,865 468,882 413,882 371,882 338,871 313,848 288,825 275,799 275,770 L 277,712 C 277,681 269,658 254,641 238,624 217,616 192,616 167,616 147,625 132,642 116,659 108,683 108,713 108,770 137,823 196,871 255,919 337,943 443,943 524,943 591,929 643,902 682,881 711,849 730,805 742,776 748,718 748,629 L 748,318 C 748,231 750,177 753,158 756,138 762,125 770,118 777,111 786,108 796,108 807,108 816,110 824,115 838,124 865,148 905,188 L 905,132 C 830,32 759,-17 691,-18 658,-17 632,-6 613,16 594,39 584,77 583,132 Z M 583,197 L 583,546 C 482,506 417,478 388,461 335,432 298,401 275,369 252,337 241,302 241,264 241,216 255,176 284,145 313,113 346,97 383,97 434,97 500,130 583,197 Z"
           id="path80" />
      </glyph>
      <glyph
         unicode="b"
         horiz-adv-x="901"
         id="glyph82">
        <path
           d="M 315,758 C 404,881 499,943 602,943 696,943 778,903 848,823 918,742 953,632 953,493 953,330 899,199 791,100 698,15 595,-27 481,-28 428,-27 374,-17 319,1 264,20 207,49 150,88 L 150,1037 C 150,1141 148,1205 143,1229 138,1253 130,1269 119,1278 108,1287 95,1291 79,1291 60,1291 37,1286 9,1275 L -5,1310 270,1422 315,1422 315,758 Z M 315,694 L 315,146 C 349,113 384,88 421,71 457,54 494,45 532,45 593,45 649,78 702,145 754,212 780,309 780,436 780,553 754,644 702,707 649,770 590,801 523,801 488,801 452,792 417,774 390,761 356,734 315,694 Z"
           id="path84" />
      </glyph>
      <glyph
         unicode="c"
         horiz-adv-x="742"
         id="glyph86">
        <path
           d="M 842,348 C 817,227 769,135 697,70 625,5 545,-27 458,-28 354,-27 263,16 186,103 109,190 70,308 70,457 70,601 113,718 199,808 284,898 387,943 507,943 597,943 671,919 729,872 787,824 816,774 816,723 816,698 808,677 792,662 775,646 752,638 723,638 684,638 654,651 634,676 623,690 615,717 612,756 608,795 594,825 571,846 548,866 515,876 474,876 407,876 354,851 313,802 259,737 232,650 232,543 232,434 259,337 313,254 366,170 439,128 530,128 595,128 654,150 706,195 743,226 778,281 813,362 L 842,348 Z"
           id="path88" />
      </glyph>
      <glyph
         unicode="d"
         horiz-adv-x="901"
         id="glyph90">
        <path
           d="M 711,103 C 666,56 623,23 580,3 537,-17 491,-27 442,-28 342,-27 255,14 180,98 105,181 68,289 68,420 68,551 109,672 192,781 275,890 381,944 511,944 592,944 658,918 711,867 L 711,1036 C 711,1141 709,1205 704,1229 699,1253 691,1269 680,1278 669,1287 656,1291 640,1291 623,1291 600,1286 571,1275 L 558,1310 831,1422 876,1422 876,363 C 876,256 879,190 884,167 889,143 897,126 908,117 919,108 931,103 946,103 964,103 988,109 1018,120 L 1029,85 757,-28 711,-28 711,103 Z M 711,173 L 711,645 C 707,690 695,732 675,769 655,806 629,835 596,854 563,873 530,882 499,882 440,882 388,856 342,803 281,734 251,632 251,499 251,364 280,261 339,190 398,118 463,82 535,82 596,82 654,112 711,173 Z"
           id="path92" />
      </glyph>
      <glyph
         unicode="e"
         horiz-adv-x="742"
         id="glyph94">
        <path
           d="M 218,571 C 217,435 250,328 317,251 384,174 462,135 552,135 612,135 664,152 709,185 753,218 790,274 820,354 L 851,334 C 837,243 796,160 729,85 662,10 577,-27 476,-28 366,-27 272,15 194,101 115,186 76,301 76,446 76,603 116,725 197,813 277,900 378,944 499,944 602,944 686,910 752,843 818,775 851,684 851,571 L 218,571 Z M 218,629 L 642,629 C 639,688 632,729 621,753 604,790 580,820 547,841 514,862 479,873 443,873 388,873 338,852 295,809 251,766 225,706 218,629 Z"
           id="path96" />
      </glyph>
      <glyph
         unicode="f"
         horiz-adv-x="795"
         id="glyph98">
        <path
           d="M 422,844 L 422,242 C 422,157 431,103 450,80 475,51 508,36 549,36 L 632,36 632,0 85,0 85,36 126,36 C 153,36 177,43 199,56 221,69 236,87 245,110 253,133 257,177 257,242 L 257,844 79,844 79,916 257,916 257,976 C 257,1067 272,1145 301,1208 330,1271 375,1323 436,1362 496,1401 564,1420 639,1420 709,1420 773,1397 832,1352 871,1322 890,1288 890,1251 890,1231 881,1212 864,1195 847,1177 828,1168 808,1168 793,1168 777,1174 760,1185 743,1196 722,1219 697,1256 672,1292 650,1316 629,1329 608,1342 585,1348 560,1348 529,1348 503,1340 482,1324 461,1307 445,1282 436,1248 427,1213 422,1125 422,982 L 422,916 658,916 658,844 422,844 Z"
           id="path100" />
      </glyph>
      <glyph
         unicode="g"
         horiz-adv-x="901"
         id="glyph102">
        <path
           d="M 309,334 C 253,361 210,400 180,449 150,498 135,552 135,611 135,702 169,780 238,845 306,910 393,943 500,943 587,943 663,922 727,879 L 921,879 C 950,879 966,878 971,877 976,875 979,872 981,868 985,862 987,851 987,836 987,819 985,807 982,800 980,797 977,794 972,792 967,790 950,789 921,789 L 802,789 C 839,741 858,680 858,605 858,520 825,447 760,386 695,325 607,295 497,295 452,295 405,302 358,315 329,290 309,268 299,249 288,230 283,213 283,200 283,189 289,178 300,167 311,156 332,149 364,144 383,141 429,139 504,137 641,134 730,129 771,123 833,114 883,91 920,54 957,17 975,-28 975,-84 975,-158 940,-229 869,-296 765,-392 629,-441 462,-442 333,-441 225,-412 136,-355 86,-321 61,-286 61,-251 61,-234 65,-218 72,-203 83,-177 107,-143 142,-100 147,-93 181,-57 244,8 209,29 185,47 171,64 156,80 149,98 149,119 149,142 159,170 178,201 197,232 240,277 309,334 Z M 483,895 C 434,895 392,875 359,836 326,797 309,736 309,655 309,550 332,468 377,410 412,366 456,344 509,344 560,344 601,363 634,401 667,439 683,499 683,580 683,686 660,769 614,829 580,873 536,895 483,895 Z M 299,0 C 268,-33 244,-64 228,-94 212,-123 204,-150 204,-176 204,-207 223,-235 262,-260 329,-300 425,-321 551,-322 671,-321 760,-300 817,-258 874,-215 902,-170 902,-123 902,-87 885,-63 851,-49 816,-33 748,-25 645,-23 495,-18 380,-10 299,0 Z"
           id="path104" />
      </glyph>
      <glyph
         unicode="h"
         horiz-adv-x="954"
         id="glyph106">
        <path
           d="M 333,1422 L 333,752 C 407,833 466,886 509,909 552,932 596,943 639,943 691,943 736,929 773,900 810,871 838,826 856,765 869,722 875,644 875,531 L 875,207 C 875,149 880,109 889,88 896,72 907,59 923,50 939,41 968,36 1011,36 L 1011,0 561,0 561,36 582,36 C 625,36 654,43 671,56 688,69 699,88 706,113 708,124 709,155 709,207 L 709,531 C 709,631 704,697 694,728 683,759 667,783 644,799 621,814 594,822 562,822 529,822 495,813 460,796 425,779 382,744 333,691 L 333,207 C 333,144 337,105 344,90 351,75 364,62 383,52 402,41 434,36 481,36 L 481,0 27,0 27,36 C 68,36 100,42 123,55 136,62 147,74 155,93 163,112 167,150 167,207 L 167,1036 C 167,1141 165,1205 160,1229 155,1253 147,1269 137,1278 126,1287 112,1291 95,1291 81,1291 58,1286 27,1275 L 13,1310 287,1422 333,1422 Z"
           id="path108" />
      </glyph>
      <glyph
         unicode="i"
         horiz-adv-x="398"
         id="glyph110">
        <path
           d="M 297,1422 C 325,1422 349,1412 369,1393 388,1373 398,1349 398,1321 398,1293 388,1269 369,1249 349,1229 325,1219 297,1219 269,1219 245,1229 225,1249 205,1269 195,1293 195,1321 195,1349 205,1373 225,1393 244,1412 268,1422 297,1422 Z M 380,943 L 380,207 C 380,150 384,112 393,93 401,74 413,59 430,50 446,41 476,36 519,36 L 519,0 74,0 74,36 C 119,36 149,40 164,49 179,58 192,72 201,92 210,112 214,150 214,207 L 214,560 C 214,659 211,724 205,753 200,774 193,789 183,798 173,806 159,810 142,810 123,810 101,805 74,795 L 60,831 336,943 380,943 Z"
           id="path112" />
      </glyph>
      <glyph
         unicode="k"
         horiz-adv-x="954"
         id="glyph114">
        <path
           d="M 335,1422 L 335,510 568,723 C 617,768 646,797 654,809 659,817 662,825 662,833 662,846 657,858 646,868 635,877 616,883 591,884 L 591,916 989,916 989,884 C 934,883 889,874 853,859 816,844 776,816 733,777 L 498,560 733,263 C 798,181 842,129 865,107 897,76 925,55 949,46 966,39 995,36 1036,36 L 1036,0 591,0 591,36 C 616,37 634,41 643,48 652,55 656,64 656,77 656,92 643,117 616,151 L 335,510 335,206 C 335,147 339,108 348,89 356,70 368,57 383,49 398,41 432,37 483,36 L 483,0 17,0 17,36 C 64,36 99,42 122,53 136,60 147,72 154,87 164,109 169,147 169,201 L 169,1035 C 169,1141 167,1206 162,1230 157,1253 150,1270 139,1279 128,1288 114,1292 97,1292 83,1292 62,1286 34,1275 L 17,1310 289,1422 335,1422 Z"
           id="path116" />
      </glyph>
      <glyph
         unicode="l"
         horiz-adv-x="398"
         id="glyph118">
        <path
           d="M 379,1422 L 379,207 C 379,150 383,112 392,93 400,74 413,60 430,51 447,41 480,36 527,36 L 527,0 78,0 78,36 C 120,36 149,40 164,49 179,58 191,72 200,92 209,112 213,150 213,207 L 213,1039 C 213,1142 211,1206 206,1230 201,1253 194,1269 184,1278 173,1287 160,1291 144,1291 127,1291 105,1286 78,1275 L 61,1310 334,1422 379,1422 Z"
           id="path120" />
      </glyph>
      <glyph
         unicode="m"
         horiz-adv-x="1457"
         id="glyph122">
        <path
           d="M 336,748 C 403,815 442,853 454,863 484,888 516,908 551,922 586,936 620,943 654,943 711,943 761,926 802,893 843,860 871,811 885,748 954,828 1012,881 1059,906 1106,931 1155,943 1205,943 1254,943 1297,931 1335,906 1372,881 1402,840 1424,783 1439,744 1446,684 1446,601 L 1446,207 C 1446,150 1450,110 1459,89 1466,74 1478,62 1496,52 1514,41 1543,36 1584,36 L 1584,0 1132,0 1132,36 1151,36 C 1190,36 1221,44 1243,59 1258,70 1269,87 1276,110 1279,121 1280,154 1280,207 L 1280,601 C 1280,676 1271,728 1253,759 1227,802 1185,823 1128,823 1093,823 1057,814 1022,797 986,779 943,746 892,698 L 890,687 892,644 892,207 C 892,144 896,105 903,90 910,75 923,62 942,52 961,41 994,36 1041,36 L 1041,0 578,0 578,36 C 629,36 664,42 683,54 702,66 715,84 722,108 725,119 727,152 727,207 L 727,601 C 727,676 716,729 694,762 665,805 624,826 571,826 535,826 499,816 464,797 409,768 366,735 336,698 L 336,207 C 336,147 340,108 349,90 357,72 369,59 386,50 402,41 435,36 485,36 L 485,0 32,0 32,36 C 74,36 103,41 120,50 137,59 149,73 158,93 167,112 171,150 171,207 L 171,557 C 171,658 168,723 162,752 157,774 150,789 140,798 130,806 116,810 99,810 80,810 58,805 32,795 L 17,831 293,943 336,943 336,748 Z"
           id="path124" />
      </glyph>
      <glyph
         unicode="n"
         horiz-adv-x="954"
         id="glyph126">
        <path
           d="M 331,749 C 438,878 541,943 638,943 688,943 731,931 767,906 803,881 832,839 853,782 868,742 875,681 875,598 L 875,207 C 875,149 880,110 889,89 896,72 908,59 925,50 941,41 971,36 1015,36 L 1015,0 562,0 562,36 581,36 C 624,36 654,43 671,56 688,69 699,88 706,113 709,123 710,154 710,207 L 710,582 C 710,665 699,726 678,764 656,801 619,820 568,820 489,820 410,777 331,690 L 331,207 C 331,145 335,107 342,92 351,73 364,59 381,50 397,41 430,36 480,36 L 480,0 27,0 27,36 47,36 C 94,36 125,48 142,72 158,95 166,140 166,207 L 166,547 C 166,657 164,724 159,748 154,772 146,788 136,797 125,806 111,810 94,810 75,810 53,805 27,795 L 12,831 288,943 331,943 331,749 Z"
           id="path128" />
      </glyph>
      <glyph
         unicode="o"
         horiz-adv-x="848"
         id="glyph130">
        <path
           d="M 512,943 C 651,943 762,890 846,785 917,695 953,592 953,475 953,393 933,310 894,226 855,142 801,79 732,36 663,-6 586,-27 501,-28 363,-27 253,27 172,137 103,230 69,334 69,449 69,533 90,617 132,700 173,783 228,844 296,884 364,923 436,943 512,943 Z M 481,878 C 446,878 410,868 375,847 339,826 310,789 288,736 266,683 255,616 255,533 255,400 282,285 335,188 388,91 457,43 544,43 609,43 662,70 704,123 746,176 767,268 767,398 767,561 732,689 662,782 615,846 554,878 481,878 Z"
           id="path132" />
      </glyph>
      <glyph
         unicode="r"
         horiz-adv-x="636"
         id="glyph134">
        <path
           d="M 332,943 L 332,737 C 409,874 487,943 568,943 605,943 635,932 659,910 683,887 695,861 695,832 695,806 686,784 669,766 652,748 631,739 607,739 584,739 558,751 529,774 500,797 478,808 464,808 452,808 439,801 425,788 395,761 364,716 332,653 L 332,214 C 332,163 338,125 351,99 360,81 375,66 397,54 419,42 451,36 492,36 L 492,0 23,0 23,36 C 70,36 104,43 127,58 144,69 155,86 162,109 165,120 167,153 167,206 L 167,561 C 167,668 165,731 161,752 156,772 148,787 137,796 125,805 110,810 93,810 72,810 49,805 23,795 L 13,831 290,943 332,943 Z"
           id="path136" />
      </glyph>
      <glyph
         unicode="s"
         horiz-adv-x="609"
         id="glyph138">
        <path
           d="M 656,943 L 656,631 623,631 C 598,729 565,796 526,831 486,866 435,884 374,884 327,884 290,872 261,847 232,822 218,795 218,765 218,728 229,696 250,669 271,642 313,613 376,582 L 522,511 C 657,445 725,358 725,250 725,167 694,100 631,49 568,-1 497,-27 419,-28 363,-27 299,-17 227,2 205,9 187,12 173,12 158,12 146,3 137,-14 L 104,-14 104,313 137,313 C 156,220 191,149 244,102 297,55 356,31 421,31 467,31 505,45 534,72 563,99 577,131 577,169 577,215 561,254 529,285 496,316 432,356 335,404 238,452 175,495 145,534 115,572 100,620 100,678 100,753 126,816 178,867 229,918 296,943 378,943 414,943 458,935 509,920 543,910 566,905 577,905 588,905 596,907 602,912 608,917 615,927 623,943 L 656,943 Z"
           id="path140" />
      </glyph>
      <glyph
         unicode="t"
         horiz-adv-x="530"
         id="glyph142">
        <path
           d="M 330,1217 L 330,916 544,916 544,846 330,846 330,252 C 330,193 339,153 356,132 373,111 394,101 421,101 443,101 464,108 485,122 506,135 522,155 533,182 L 572,182 C 549,117 516,68 473,35 430,2 386,-14 341,-15 310,-14 280,-5 251,11 222,28 200,52 186,84 172,115 165,164 165,230 L 165,846 20,846 20,879 C 57,894 94,919 133,954 171,989 205,1030 235,1078 250,1103 272,1150 299,1217 L 330,1217 Z"
           id="path144" />
      </glyph>
      <glyph
         unicode="u"
         horiz-adv-x="954"
         id="glyph146">
        <path
           d="M 867,916 L 867,361 C 867,255 870,190 875,167 880,143 888,126 899,117 910,108 922,103 937,103 958,103 981,109 1007,120 L 1021,85 747,-28 702,-28 702,166 C 623,81 563,27 522,5 481,-16 437,-27 391,-28 340,-27 295,-12 258,17 220,46 194,84 179,131 164,178 157,244 157,329 L 157,738 C 157,781 152,811 143,828 134,845 120,858 102,867 83,876 50,880 2,879 L 2,916 323,916 323,303 C 323,218 338,162 368,135 397,108 433,95 475,95 504,95 536,104 573,122 609,140 652,174 702,225 L 702,744 C 702,796 693,831 674,850 655,868 615,878 555,879 L 555,916 867,916 Z"
           id="path148" />
      </glyph>
      <glyph
         unicode="w"
         horiz-adv-x="1430"
         id="glyph150">
        <path
           d="M 13,916 L 397,916 397,879 C 362,876 339,870 328,860 317,850 311,836 311,817 311,796 317,771 328,742 L 524,215 721,644 669,779 C 653,819 632,847 606,862 591,871 564,877 524,879 L 524,916 960,916 960,879 C 912,877 878,868 858,853 845,842 838,825 838,802 838,789 841,775 846,761 L 1054,235 1247,742 C 1260,778 1267,807 1267,828 1267,841 1261,852 1248,862 1235,872 1209,878 1171,879 L 1171,916 1460,916 1460,879 C 1402,870 1359,831 1332,761 L 1026,-28 985,-28 756,557 489,-28 452,-28 158,742 C 139,791 120,824 101,841 82,858 53,870 13,879 L 13,916 Z"
           id="path152" />
      </glyph>
      <glyph
         unicode="x"
         horiz-adv-x="980"
         id="glyph154">
        <path
           d="M 27,916 L 458,916 458,879 C 431,879 412,874 401,865 390,856 384,843 384,828 384,812 396,787 419,754 426,743 437,727 452,704 L 517,600 592,704 C 640,770 664,812 664,829 664,843 658,855 647,865 636,874 617,879 592,879 L 592,916 902,916 902,879 C 869,877 841,868 817,852 784,829 740,780 683,704 L 558,537 786,209 C 842,128 882,80 906,64 930,47 961,38 999,36 L 999,0 567,0 567,36 C 597,36 620,43 637,56 650,65 656,78 656,93 656,108 635,147 592,209 L 458,405 311,209 C 266,148 243,112 243,101 243,85 251,71 266,58 281,45 303,37 333,36 L 333,0 34,0 34,36 C 58,39 79,48 97,61 122,80 165,130 225,209 L 417,464 243,716 C 194,788 156,833 129,852 102,870 68,879 27,879 L 27,916 Z"
           id="path156" />
      </glyph>
      <glyph
         unicode="z"
         horiz-adv-x="795"
         id="glyph158">
        <path
           d="M 860,281 L 849,0 41,0 41,36 649,846 349,846 C 284,846 242,842 222,834 202,825 186,809 173,786 155,753 145,711 142,662 L 102,662 108,916 876,916 876,879 262,67 596,67 C 666,67 714,73 739,85 764,96 784,117 799,146 810,167 819,212 826,281 L 860,281 Z"
           id="path160" />
      </glyph>
      <glyph
         unicode="»"
         horiz-adv-x="769"
         id="glyph162">
        <path
           d="M 516,934 L 573,934 960,462 573,-8 516,-8 760,462 516,934 Z M 64,934 L 122,934 516,462 122,-8 64,-8 307,462 64,934 Z"
           id="path164" />
      </glyph>
      <glyph
         unicode="ü"
         horiz-adv-x="954"
         id="glyph166">
        <path
           d="M 867,916 L 867,361 C 867,255 870,190 875,167 880,143 888,126 899,117 910,108 922,103 937,103 958,103 981,109 1007,120 L 1021,85 747,-28 702,-28 702,166 C 623,81 563,27 522,5 481,-16 437,-27 391,-28 340,-27 295,-12 258,17 220,46 194,84 179,131 164,178 157,244 157,329 L 157,738 C 157,781 152,811 143,828 134,845 120,858 102,867 83,876 50,880 2,879 L 2,916 323,916 323,303 C 323,218 338,162 368,135 397,108 433,95 475,95 504,95 536,104 573,122 609,140 652,174 702,225 L 702,744 C 702,796 693,831 674,850 655,868 615,878 555,879 L 555,916 867,916 Z M 687,1336 C 717,1336 743,1325 764,1304 785,1283 795,1257 795,1227 795,1197 785,1172 764,1151 743,1130 717,1119 687,1119 657,1119 631,1130 610,1151 589,1172 578,1197 578,1227 578,1257 589,1283 610,1304 631,1325 657,1336 687,1336 Z M 334,1336 C 365,1336 391,1325 412,1304 433,1283 443,1257 443,1227 443,1197 432,1172 411,1151 390,1130 364,1119 335,1119 305,1119 279,1130 258,1151 237,1172 226,1197 226,1227 226,1257 237,1283 258,1304 279,1325 304,1336 334,1336 Z"
           id="path168" />
      </glyph>
      <glyph
         unicode="–"
         horiz-adv-x="1059"
         id="glyph170">
        <path
           d="M 1041,453 L -18,453 -18,526 1041,526 1041,453 Z"
           id="path172" />
      </glyph>
      <glyph
         unicode="•"
         horiz-adv-x="477"
         id="glyph174">
        <path
           d="M 363,928 C 432,928 492,904 541,855 590,806 614,746 614,677 614,608 590,549 541,500 492,451 432,426 363,426 294,426 235,451 186,500 137,549 112,608 112,677 112,746 136,806 185,855 234,904 293,928 363,928 Z"
           id="path176" />
      </glyph>
    </font>
</defs>
</svg>
